ElCommz

- A New Beginning -
 
HomeFAQRegisterLog in

Share | 
 

 Download Arena

View previous topic View next topic Go down 
AuthorMessage
Admin
Admin
avatar

Posts : 502
Join date : 2010-07-23
Age : 27
Location : Chennai

PostSubject: Download Arena   Sat Jul 24, 2010 9:21 am

Do u need links to download something?

Games?
Movies?
Songs?
Softwares?

Ask them here.

I'll get you the links As soon as Possible Smile

_________________
Ramanan~


Back to top Go down
http://elcommz.forumotions.in
raja26
Elite
avatar

Posts : 251
Join date : 2010-07-25
Age : 27
Location : chennai

PostSubject: Re: Download Arena   Sun Jul 25, 2010 8:52 am

'na lk fr A mve LUST IN THE DUST
Back to top Go down
http://wwwhtt http://www.tagged.com/sai2690p://www.ibibo.com/sai
Admin
Admin
avatar

Posts : 502
Join date : 2010-07-23
Age : 27
Location : Chennai

PostSubject: Re: Download Arena   Sun Jul 25, 2010 9:28 am

raja26 wrote:
'na lk fr A mve LUST IN THE DUST


Code:
Lust In the Dust (1985) Dvdrip
Genre: Comedy | Western
Director: Paul Bartel / Country: USA
Aspect Ratio: 2.35:1 / Color / 83 mns
Language: English / Subtitles: none
File: avi / Xvid / 684 mo
Movie Preview Thumbnail
http://www.imdb.com/title/tt0089523/


http://hotfile.com/dl/45053019/e727d0b/LITD85.part1.rar.html
http://hotfile.com/dl/45053125/682fbb4/LITD85.part2.rar.html
http://hotfile.com/dl/45062127/5e270f7/LITD85.part3.rar.html
http://hotfile.com/dl/45062276/f1f959d/LITD85.part4.rar.html


_________________
Ramanan~


Back to top Go down
http://elcommz.forumotions.in
raja26
Elite
avatar

Posts : 251
Join date : 2010-07-25
Age : 27
Location : chennai

PostSubject: Re: Download Arena   Wed Jul 28, 2010 10:29 pm

tks machi..
Back to top Go down
http://wwwhtt http://www.tagged.com/sai2690p://www.ibibo.com/sai
Admin
Admin
avatar

Posts : 502
Join date : 2010-07-23
Age : 27
Location : Chennai

PostSubject: Re: Download Arena   Thu Jul 29, 2010 7:45 am

Cha NP da Very Happy

_________________
Ramanan~


Back to top Go down
http://elcommz.forumotions.in
venkat kiran

avatar

Posts : 8
Join date : 2010-08-09

PostSubject: Re: Download Arena   Mon Aug 09, 2010 11:31 pm

i need link for ''good bad and the ugly'' print should be good ra
Back to top Go down
Admin
Admin
avatar

Posts : 502
Join date : 2010-07-23
Age : 27
Location : Chennai

PostSubject: The Good The Bad And The Ugly 1966 BRRip XviD   Tue Aug 10, 2010 8:35 pm

Screenshot :



Info :
Code:
The.Good.the.Bad.and.the.Ugly.1966.PROPER.DVDRip.XviD-SAPHiRE.CD1.avi
Format                          : AVI
Format/Info                      : Audio Video Interleave
Format settings                  : rec
File size                        : 699 MiB
Duration                        : 1h 27mn
Overall bit rate                : 1 119 Kbps

Video
ID                              : 0
Format                          : MPEG-4 Visual
Format profile                  : Simple@L3
Format settings, BVOP            : No
Format settings, QPel            : No
Format settings, GMC            : No warppoints
Format settings, Matrix          : Default (MPEG)
Codec ID                        : XVID
Codec ID/Hint                    : XviD
Duration                        : 1h 27mn
Bit rate                        : 1 019 Kbps
Width                            : 576 pixels
Height                          : 240 pixels
Display aspect ratio            : 2.40:1
Frame rate                      : 23.976 fps
Resolution                      : 24 bits
Colorimetry                      : 4:2:0
Scan type                        : Progressive
Bits/(Pixel*Frame)              : 0.307
Stream size                      : 637 MiB (91%)
Writing library                  : XviD 0.0.09 (UTC 2003-03-25)

Audio
ID                              : 1
Format                          : MPEG Audio
Format version                  : Version 1
Format profile                  : Layer 3
Codec ID                        : 55
Codec ID/Hint                    : MP3
Duration                        : 1h 27mn
Bit rate mode                    : Constant
Bit rate                        : 32.0 Kbps
Channel(s)                      : 1 channel
Sampling rate                    : 48.0 KHz
Resolution                      : 16 bits
Stream size                      : 54.6 MiB (8%)
Alignment                        : Aligned on interleaves
Interleave, duration            : 24 ms (0.58 video frame)
Interleave, preload duration    : 175 ms


Download Links :


rapidshare.com TheGoodhcjgsiogiioysrgeis._crostuff.net.part01.rar
rapidshare.com TheGoodhcjgsiogiioysrgeis._crostuff.net.part02.rar
rapidshare.com TheGoodhcjgsiogiioysrgeis._crostuff.net.part03.rar
rapidshare.com TheGoodhcjgsiogiioysrgeis._crostuff.net.part04.rar
rapidshare.com TheGoodhcjgsiogiioysrgeis._crostuff.net.part05.rar
rapidshare.com TheGoodhcjgsiogiioysrgeis._crostuff.net.part06.rar
rapidshare.com TheGoodhcjgsiogiioysrgeis._crostuff.net.part07.rar
rapidshare.com TheGoodhcjgsiogiioysrgeis._crostuff.net.part08.rar
rapidshare.com TheGoodhcjgsiogiioysrgeis._crostuff.net.part09.rar
rapidshare.com TheGoodhcjgsiogiioysrgeis._crostuff.net.part10.rar
rapidshare.com TheGoodhcjgsiogiioysrgeis._crostuff.net.part11.rar
rapidshare.com TheGoodhcjgsiogiioysrgeis._crostuff.net.part12.rar
rapidshare.com TheGoodhcjgsiogiioysrgeis._crostuff.net.part13.rar
rapidshare.com TheGoodhcjgsiogiioysrgeis._crostuff.net.part14.rar

or

hotfile.com TheGoodhcjgsiogiioysrgeis._crostuff.net.part01.rar.html
hotfile.com TheGoodhcjgsiogiioysrgeis._crostuff.net.part02.rar.html
hotfile.com TheGoodhcjgsiogiioysrgeis._crostuff.net.part03.rar.html
hotfile.com TheGoodhcjgsiogiioysrgeis._crostuff.net.part04.rar.html
hotfile.com TheGoodhcjgsiogiioysrgeis._crostuff.net.part05.rar.html
hotfile.com TheGoodhcjgsiogiioysrgeis._crostuff.net.part06.rar.html
hotfile.com TheGoodhcjgsiogiioysrgeis._crostuff.net.part07.rar.html
hotfile.com TheGoodhcjgsiogiioysrgeis._crostuff.net.part08.rar.html
hotfile.com TheGoodhcjgsiogiioysrgeis._crostuff.net.part09.rar.html
hotfile.com TheGoodhcjgsiogiioysrgeis._crostuff.net.part10.rar.html
hotfile.com TheGoodhcjgsiogiioysrgeis._crostuff.net.part11.rar.html
hotfile.com TheGoodhcjgsiogiioysrgeis._crostuff.net.part12.rar.html
hotfile.com TheGoodhcjgsiogiioysrgeis._crostuff.net.part13.rar.html
hotfile.com TheGoodhcjgsiogiioysrgeis._crostuff.net.part14.rar.html

or


megaupload.com 7OHKW93Z
megaupload.com YPWNWZ40
megaupload.com F4KAKDWX
megaupload.com CV3Z8COA
megaupload.com GH79LDI0
megaupload.com 2T33VYF3
megaupload.com RXR5O59B
megaupload.com XTSVA2NJ
megaupload.com 1COPFH5D
megaupload.com 2P87G5GC
megaupload.com N0K7SYUC
megaupload.com X03T82A3
megaupload.com FC0G1H8E
megaupload.com L6XB7DDD


Links are interchangeable

_________________
Ramanan~


Back to top Go down
http://elcommz.forumotions.in
venkat kiran

avatar

Posts : 8
Join date : 2010-08-09

PostSubject: Re: Download Arena   Tue Aug 10, 2010 9:51 pm

Thanks ra.....Smile
Back to top Go down
Admin
Admin
avatar

Posts : 502
Join date : 2010-07-23
Age : 27
Location : Chennai

PostSubject: Re: Download Arena   Tue Aug 10, 2010 9:52 pm

NP dude.


Do ask if ya want anything elz Smile

_________________
Ramanan~


Back to top Go down
http://elcommz.forumotions.in
venkat kiran

avatar

Posts : 8
Join date : 2010-08-09

PostSubject: Re: Download Arena   Thu Aug 12, 2010 8:44 am

K dude.......Smile
Back to top Go down
Sponsored content




PostSubject: Re: Download Arena   

Back to top Go down
 
Download Arena
View previous topic View next topic Back to top 
Page 1 of 1
 Similar topics
-
» President of the Parliament of Kurdistan and Iraq envoy of the Secretary-General of the United Nations discuss new developments in the Iraqi arena
» "Korean companies group" confirms its efforts to engage effectively in the Iraqi investment arena

Permissions in this forum:You cannot reply to topics in this forum
ElCommz :: Mazaa :: Informative-
Jump to: